#TITLE:Bang;
#SUBTITLE:;
#ARTIST:Unknown artist;
#TITLETRANSLIT:;
#SUBTITLETRANSLIT:;
#ARTISTTRANSLIT:;
#CREDIT:;
#BANNER:bn.png;
#BACKGROUND:bg.png;
#LYRICSPATH:;
#CDTITLE:;
#MUSIC:Bang.mp3;
#OFFSET:-0.180;
#SAMPLESTART:42.680;
#SAMPLELENGTH:16.000;
#SELECTABLE:YES;
#BPMS:0.000=120.000,60.500=240.022,61.000=239.978,61.500=120.000,69.000=240.000,70.000=120.000,77.500=240.022,78.000=239.978,78.500=120.000,98.500=60.005,98.625=240.022,98.875=120.011,99.000=120.000,100.000=60.005,100.125=240.022,100.375=120.002,101.000=120.000,101.500=60.005,101.625=240.022,101.875=120.011,102.000=120.000,126.000=240.000,127.000=120.000,134.500=240.022,135.000=239.978,135.500=120.000,143.000=240.000,144.000=120.000,152.000=60.000,160.000=120.000,224.000=60.005,224.125=240.022,224.375=120.002,225.000=120.000,225.500=60.005,225.625=240.022,225.875=120.011,226.000=120.000,227.000=60.005,227.125=240.022,227.375=120.002,228.000=120.000,250.000=240.000,254.000=120.000,268.000=240.000,272.000=120.000,287.500=240.022,288.000=239.978,288.500=120.000;
#STOPS:;
#BGCHANGES:;
// cache tags:
#FIRSTBEAT:1.000;
#LASTBEAT:312.500;
#SONGFILENAME:Songs/SDO pack 3/Bang!/Bang.sm;
#HASMUSIC:1;
#HASBANNER:1;
#MUSICLENGTH:158.331;
// end cache tags

//---------------dance-single - ----------------
#NOTES:
     dance-single:
     :
     Hard:
     16:
     1.000,1.000,1.000,1.000,1.000,921.000,256.000,241.000,0.000,153.000:
0000
0200
0000
0000
,
0000
0300
1000
0010
0200
0000
0300
0000
0000
0000
0001
0100
0020
0000
0030
0000
,
0000
0000
0010
0100
0002
0000
0003
0000
0000
0000
1000
0010
2000
0000
3000
0000
,
0000
0000
0010
0100
0002
0000
0003
0000
0000
0000
0001
0100
0020
0000
0030
0000
,
0000
0000
1000
0010
0200
0000
0000
0000
0000
0000
1000
0010
2000
0000
3010
0000
,
0000
0010
0001
1000
0312
0000
1003
0000
0011
0000
1000
0010
0200
0000
0301
0000
,
1001
0000
0001
0100
0020
0000
1030
0010
1001
0000
0010
1000
0002
0000
1003
0000
,
1010
0000
0001
0010
2000
0000
3010
0000
0101
0000
0001
1000
0012
0000
0103
0000
,
1001
0000
0001
0100
0020
0000
1030
0000
1100
0000
0010
1000
0200
0000
0301
0000
,
1001
0000
0001
0100
0020
0000
1030
0000
1001
0000
0010
1000
0002
0000
0013
0000
,
1100
0000
0010
0001
2000
0000
3010
0000
0101
0000
0010
1000
0002
0000
0103
0000
,
1001
0000
0001
1000
0020
0000
0130
0000
0011
0000
1000
0010
0200
0000
0301
0000
,
1001
0000
1000
0010
0220
0000
0031
0000
1000
0000
0010
0001
1020
0000
0031
0000
,
0000
0011
0000
0000
1300
0010
1001
0010
1001
0100
1001
0010
1000
0010
1001
0010
,
1001
0100
0010
0001
1100
0001
0010
0001
1100
0001
1100
0001
0010
0001
1100
0001
,
1100
0001
1000
0010
1001
0100
0001
0100
1001
0100
1001
0010
1001
0100
0001
0100
,
1001
0100
1001
0010
0100
1000
0011
1000
0100
1000
0011
1000
0011
1000
0100
1000
,
0011
1000
0011
1000
0010
0101
0000
0010
1000
0010
1001
0010
1001
0100
1001
0010
,
1000
0010
1001
0010
1001
0100
0010
0001
1100
0001
0010
0001
1100
0001
1100
0001
,
0010
0001
1100
0001
1100
0001
0100
1001
0000
0010
1000
0010
1001
0010
1001
0100
,
1001
0000
0000
0010
0000
0000
1000
0000
0000
0010
0000
0000
1001
0000
0000
0010
0000
0000
1001
0000
0000
0100
0000
0000
0010
0000
0000
0001
0000
0000
2102
0000
0000
0010
0000
0000
0010
0000
0010
0000
0010
0000
0010
0000
0000
0010
0000
0000
,
0010
0000
0010
0000
0010
0000
0010
0000
0000
0010
0000
0000
0010
0000
0010
0000
0010
0000
0010
0000
0000
0010
0000
0000
0010
0000
0010
0003
0010
0000
3012
0000
0000
0023
0000
0000
2031
0000
0000
0100
0000
0000
3011
0000
0000
0001
0000
0000
,
2100
3020
2130
0000
3001
0100
1001
0010
2001
3020
0132
0000
1003
0010
0101
0010
,
2000
3020
0231
0000
1300
0010
1001
0100
2001
3002
0213
0000
0301
1000
0110
0000
,
0210
0320
2031
0000
3100
0010
1001
0100
0001
0000
0022
0000
2033
0000
3000
0000
,
0022
0000
2033
0000
3000
0000
0022
0000
2033
0000
3210
0320
2031
0100
3011
0001
,
2100
3020
2130
0000
3001
0100
1001
0010
2001
3020
0132
0000
1003
0010
0101
0010
,
2000
3020
0231
0000
1300
0010
1001
0100
2001
3002
0213
0000
0301
1000
0110
0000
,
0210
0000
0000
0320
0000
0000
2031
0000
0000
0000
0000
0000
3001
0000
0000
0010
0000
0000
1001
0000
0000
0100
0000
0000
0021
0000
0000
2030
0000
0000
3212
0000
0000
0010
0000
0000
2013
0000
0010
0000
0010
0000
3010
0000
0000
0010
0000
0000
,
0012
0000
0010
0000
0010
0000
2013
0000
0000
0010
0000
0000
3010
0000
0010
0000
0010
0000
0012
0000
0000
0010
0000
0000
0013
0000
0010
0000
0010
0000
1300
0000
0000
0010
0000
0000
1001
0000
0000
0010
0000
0000
1001
0000
0000
0100
0000
0000
,
1001
0010
1000
0010
1001
0010
1001
0100
0010
0001
1100
0001
0010
0001
1100
0001
,
1100
0001
0010
0001
1100
0001
1100
0001
1000
0010
0101
1000
0001
0100
1001
0100
,
1001
0010
1001
0100
0001
0100
1001
0100
1001
0010
0100
1000
0011
1000
0100
1000
,
0011
1000
0011
1000
0100
1000
0011
1000
0011
1000
0001
1100
0001
0010
0100
0001
,
0020
0000
2130
0001
3002
1000
2013
0000
3020
0100
2031
0000
3002
1000
2013
0000
,
3020
0000
0231
0000
1302
0010
2003
0100
3020
0001
2130
0000
3002
0100
1013
0001
,
2100
0000
3020
0001
2130
0000
3200
0010
1302
0010
2003
0100
3021
0000
2130
0100
,
3022
0000
2003
0000
3002
0000
2003
0000
3201
0000
1302
0000
0003
0101
0000
0000
,
2030
3020
0130
0001
2000
3020
1030
0001
2000
3020
0130
0001
2000
3020
1030
0001
,
2020
3002
0103
0001
2000
3002
0103
0001
2000
3002
0103
0001
2030
3020
0130
0001
,
1100
0001
1100
0001
1100
0001
1100
0001
,
0101
0001
1100
0001
1100
0001
1100
0001
,
1001
1000
0011
1000
0011
1000
0011
1000
,
0011
1000
0011
1000
0011
1000
1001
1001
,
2002
0000
3013
0000
1100
0001
2000
0000
3011
0000
1020
0000
0031
0000
1020
0000
,
0130
0000
0020
1000
0031
0100
0020
0000
0031
0000
0020
0100
0031
0000
0020
0100
,
1030
0000
0020
0100
0031
1000
0020
0100
0031
0000
0020
0100
1030
0000
0120
0000
,
0031
0000
0020
0000
0130
0000
0020
0000
0130
0000
0020
1000
0031
0000
0020
0000
,
0130
0200
0300
0200
0300
0200
0300
0200
,
0300
0200
0300
0200
0300
0200
0300
0200
,
0300
0200
0300
0200
0300
0200
0300
0200
,
0310
0200
0310
0200
0310
0200
0310
0200
,
2312
0000
0000
0010
0000
0000
0010
0000
0010
0000
0010
0000
0010
0000
0000
0010
0000
0000
0010
0000
0010
0000
0010
0000
0010
0000
0000
0010
0000
0000
0010
0000
0010
0000
0010
0000
0010
0000
0000
0010
0000
0000
0010
0000
0010
0003
0010
0000
,
3012
0023
2031
0100
3011
0001
2100
3020
2130
0000
3001
0100
1001
0010
2001
3020
,
0132
0000
1003
0010
0101
0010
2000
3020
0231
0000
1300
0010
1001
0100
2001
3002
,
0213
0000
0301
1000
0110
0000
0210
0320
2031
0000
3100
0010
1001
0100
0001
0000
,
0022
2033
3000
0022
2033
3000
0022
2033
,
3210
0320
2031
0100
3011
0001
2100
3020
2130
0000
3001
0100
1001
0010
2001
3020
,
0132
0000
1003
0010
0101
0010
2000
3020
0231
0000
1300
0010
1001
0100
2001
3002
,
0213
0000
0301
1000
0110
0000
0210
0320
2031
0000
3001
0010
1001
0100
0021
2030
,
3212
0000
0000
0010
0000
0000
2013
0000
0010
0000
0010
0000
3010
0000
0000
0010
0000
0000
0012
0000
0010
0000
0010
0000
2013
0000
0000
0010
0000
0000
3010
0000
0010
0000
0010
0000
0012
0000
0000
0010
0000
0000
2013
0000
0010
0000
0000
0000
,
3311
1000
0001
0100
1001
0100
0001
1000
0011
1000
0001
0000
1100
0000
1001
0000
,
0011
1000
0001
0100
1010
0100
0001
0000
0001
1000
0001
1000
0001
1000
0001
1000
,
0001
1000
0001
1000
0001
1000
0001
1000
0001
0000
1000
0010
1001
0100
0001
0000
,
0110
0000
0001
1000
0011
0000
1000
0000
0011
1000
0100
0010
1001
0100
0001
0000
,
0001
1000
0001
0000
1100
0000
0010
0000
1001
0000
0010
1000
0011
0000
1001
0000
,
1001
0000
1001
0000
0010
1001
0100
0000
0010
0000
1000
0010
1100
0000
0011
0000
,
1000
0001
1000
0001
1100
0001
1000
0001
1000
0001
1100
0001
1000
0001
1000
0000
,
0010
0000
1000
0010
1001
0000
1001
0000
0100
0000
0011
0000
1000
0011
1000
0000
,
0021
0000
0000
0000
0101
0000
0101
0000
0000
0000
1100
0000
0101
0101
0000
0000
,
2230
3302
0103
2201
3302
0103
2201
3302
,
1003
0000
0010
1000
0011
0000
1000
0001
0010
0000
0100
0000
1001
0000
0010
1000
,
0101
0000
0010
0000
1000
0010
0101
0000
1000
0000
0010
0000
0001
0100
0011
0000
,
1000
0010
1000
0000
0010
1000
0101
0000
0010
0000
1000
0000
0010
1000
0110
0000
,
1000
0010
0200
0000
1302
0000
0013
0000
2000
0100
3002
0000
0013
0000
2100
0000
,
3002
0010
0023
0000
0031
0000
0100
0000
1000
0010
2000
0000
3001
0000
0100
0000
,
0010
0001
2000
0000
3020
0000
1030
0000
2001
0100
3002
0000
0103
0000
0200
0000
,
0310
0000
0000
1000
0000
0000
0210
0000
0000
0010
0000
0000
0010
0000
0010
0000
0010
0000
0010
0000
0000
0010
0000
0000
0010
0000
0010
0000
0010
0000
0010
0000
0000
0010
0000
0000
0010
0000
0010
0000
0010
0000
0010
0000
0000
0010
0000
0000
,
0010
0010
0010
0310
0000
0000
0000
0000
0000
0000
0000
0000
0000
0000
0000
0000
0000
0000
0000
0000
0000
0000
0000
0000
,
0000
0000
0000
0000
,
0000
0000
0000
0000
,
0000
0000
0000
0000
,
0000
0000
0000
0000
,
0000
0000
0000
0000
,
0000
0000
0000
0000
;
